<?xml version="1.0" standalone="no"?>
<!DOCTYPE svg PUBLIC "-//W3C//DTD SVG 1.1//EN" "http://www.w3.org/Graphics/SVG/1.1/DTD/svg11.dtd" >
<svg xmlns="http://www.w3.org/2000/svg">
<metadata></metadata>
<defs>
<font id="proxima_nova_ltsemibold" horiz-adv-x="673" >
<font-face units-per-em="1000" ascent="790" descent="-210" />
<missing-glyph horiz-adv-x="257" />
<glyph unicode="&#xfb01;" horiz-adv-x="549" d="M13 391v92h80v27q0 79 42 123t111 44q51 0 84 -19l-23 -78q-16 11 -42 11q-31 0 -49 -20.5t-18 -60.5v-27h98v-92h-98v-391h-105v391h-80zM363 607q0 27 19.5 46t45.5 19q27 0 46 -19t19 -46t-19 -46t-46 -19q-26 0 -45.5 19t-19.5 46zM376 0v483h105v-483h-105z" />
<glyph unicode="&#xfb02;" horiz-adv-x="549" d="M13 391v92h80v27q0 79 42 123t111 44q51 0 84 -19l-23 -78q-16 11 -42 11q-31 0 -49 -20.5t-18 -60.5v-27h98v-92h-98v-391h-105v391h-80zM376 0v667h105v-667h-105z" />
<glyph unicode="&#xfb03;" horiz-adv-x="858" d="M13 391v92h80v27q0 78 41.5 122.5t111.5 44.5q75 0 116 -42l-41 -65q-23 21 -56 21q-31 0 -49 -20.5t-18 -60.5v-27h98v-92h-98v-391h-105v391h-80zM321 391v92h80v27q0 79 42 123t111 44q51 0 84 -19l-23 -78q-16 11 -42 11q-31 0 -49 -20.5t-18 -60.5v-27h98v-92h-98 v-391h-105v391h-80zM672 607q0 27 19.5 46t45.5 19q27 0 46 -19t19 -46t-19 -46t-46 -19q-26 0 -45.5 19t-19.5 46zM685 0v483h105v-483h-105z" />
<glyph unicode="&#xfb04;" horiz-adv-x="858" d="M13 391v92h80v27q0 78 41.5 122.5t111.5 44.5q75 0 116 -42l-41 -65q-23 21 -56 21q-31 0 -49 -20.5t-18 -60.5v-27h98v-92h-98v-391h-105v391h-80zM321 391v92h80v27q0 79 42 123t111 44q51 0 84 -19l-23 -78q-16 11 -42 11q-31 0 -49 -20.5t-18 -60.5v-27h98v-92h-98 v-391h-105v391h-80zM685 0v667h105v-667h-105z" />
<glyph horiz-adv-x="0" />
<glyph horiz-adv-x="0" />
<glyph horiz-adv-x="333" />
<glyph unicode="&#xd;" horiz-adv-x="0" />
<glyph unicode=" "  horiz-adv-x="257" />
<glyph unicode="&#x09;" horiz-adv-x="257" />
<glyph unicode="&#xa0;" horiz-adv-x="257" />
<glyph unicode="!" horiz-adv-x="245" d="M53 59q0 29 20.5 49.5t48.5 20.5t49 -20.5t21 -49.5q0 -28 -21 -48.5t-49 -20.5t-48.5 20.5t-20.5 48.5zM58 667h128l-18 -463h-91z" />
<glyph unicode="&#x22;" horiz-adv-x="379" d="M48 618q0 24 17 41.5t42 17.5q24 0 41.5 -17.5t17.5 -41.5l-35 -227h-48q-35 210 -35 227zM214 618q0 24 17 41.5t42 17.5q24 0 41 -17.5t17 -41.5l-35 -227h-47q-35 210 -35 227z" />
<glyph unicode="#" horiz-adv-x="606" d="M19 174l22 69h102l59 180h-102l21 68h105l58 176h80l-58 -176h101l58 176h80l-59 -176h101l-20 -68h-104l-60 -180h105l-21 -69h-107l-58 -174h-80l59 174h-102l-58 -174h-80l58 174h-100zM223 243h100l60 180h-101z" />
<glyph unicode="$" horiz-adv-x="605" d="M35 94l65 90q69 -74 168 -89v193q-47 12 -78 23.5t-65 33t-51.5 56t-17.5 81.5q0 77 58 131t154 62v93h80v-94q121 -13 201 -90l-67 -87q-55 54 -134 70v-172q37 -10 63 -19t57.5 -25.5t50.5 -36t32 -50.5t13 -70q0 -82 -54.5 -138.5t-161.5 -65.5v-90h-80v90 q-149 11 -233 104zM176 490q0 -48 92 -74v156q-43 -4 -67.5 -26.5t-24.5 -55.5zM348 94q49 8 73 33t24 56t-25 50.5t-72 33.5v-173z" />
<glyph unicode="%" horiz-adv-x="746" d="M28 510q0 72 46 119.5t119 47.5q74 0 120.5 -47.5t46.5 -119.5q0 -71 -46.5 -117.5t-120.5 -46.5q-73 0 -119 46.5t-46 117.5zM105 510q0 -43 25 -70.5t63 -27.5q39 0 64 27.5t25 70.5q0 45 -25 72.5t-64 27.5t-63.5 -27.5t-24.5 -72.5zM129 0l426 667h67l-427 -667h-66z M387 152q0 72 46 119.5t119 47.5t119.5 -48t46.5 -119t-46.5 -117.5t-119.5 -46.5t-119 46.5t-46 117.5zM464 152q0 -43 24.5 -70.5t63.5 -27.5t64 27.5t25 70.5q0 45 -25 72.5t-64 27.5t-63.5 -27.5t-24.5 -72.5z" />
<glyph unicode="&#x26;" horiz-adv-x="644" d="M29 178q0 70 38.5 114.5t106.5 80.5q-47 84 -47 146q0 68 51.5 113t129.5 45q71 0 118 -37t47 -100q0 -36 -13 -65t-40.5 -51.5t-51 -36t-62.5 -32.5q29 -40 66 -82q37 -45 66 -77q44 69 66 139l86 -39q-47 -103 -93 -165q55 -59 130 -131h-137q-22 19 -59 58 q-83 -70 -187 -70q-94 0 -154.5 49.5t-60.5 140.5zM141 187q0 -53 34 -84t82 -31q60 0 115 47q-59 64 -89 99.5t-67 88.5q-75 -49 -75 -120zM233 517q0 -43 33 -101q56 26 85 53t29 66q0 30 -19 47t-48 17q-34 0 -57 -23t-23 -59z" />
<glyph unicode="'" horiz-adv-x="214" d="M48 618q0 24 17 41.5t42 17.5q24 0 41.5 -17.5t17.5 -41.5l-35 -227h-48q-35 210 -35 227z" />
<glyph unicode="(" horiz-adv-x="276" d="M42 243q0 120 40 237.5t111 204.5l65 -49q-52 -98 -77 -189t-25 -204t25 -204t77 -188l-65 -50q-71 86 -111 203.5t-40 238.5z" />
<glyph unicode=")" horiz-adv-x="276" d="M17 -149q53 97 78 188t25 204t-25 204t-78 189l65 49q71 -87 111.5 -204t40.5 -238t-40.5 -238.5t-111.5 -203.5z" />
<glyph unicode="*" horiz-adv-x="346" d="M29 475l99 51l-99 51l27 48l94 -60l-5 112h56l-6 -112l94 60l28 -48l-99 -51l99 -51l-28 -48l-94 61l6 -112h-56l5 112l-94 -61z" />
<glyph unicode="+" horiz-adv-x="502" d="M29 303v68h185v200h74v-200h185v-68h-185v-207h-74v207h-185z" />
<glyph unicode="," horiz-adv-x="245" d="M52 60q0 28 20 48.5t48 20.5q32 0 55 -24.5t23 -66.5q0 -50 -25.5 -95.5t-68.5 -75.5l-47 39q25 15 46 42t26 52q-9 -3 -17 -3q-26 0 -43 17.5t-17 45.5z" />
<glyph unicode="-" horiz-adv-x="300" d="M30 197v90h240v-90h-240z" />
<glyph unicode="." horiz-adv-x="245" d="M52 59q0 29 21 49.5t49 20.5t49 -20.5t21 -49.5t-21 -49.5t-49 -20.5t-49 20.5t-21 49.5z" />
<glyph unicode="/" horiz-adv-x="315" d="M0 -20l237 707h78l-237 -707h-78z" />
<glyph unicode="0" horiz-adv-x="616" d="M41 333q0 65 16 125t47 109.5t84 79.5t120 30t120 -30t84 -79.5t47 -109.5t16 -125t-16 -125t-47 -110t-84 -80t-120 -30t-120 30t-84 80t-47 110t-16 125zM160 333q0 -105 36 -173t112 -68t112 68t36 173q0 67 -13.5 119t-48 86.5t-86.5 34.5t-86.5 -34.5t-48 -86.5 t-13.5 -119z" />
<glyph unicode="1" horiz-adv-x="380" d="M15 473l192 194h102v-667h-117v515l-109 -113z" />
<glyph unicode="2" horiz-adv-x="595" d="M41 570q43 52 108.5 79.5t137.5 27.5q102 0 172 -55t70 -151q0 -86 -72 -171t-220 -197h296v-103h-483v92q209 158 284.5 234.5t75.5 144.5q0 49 -35.5 75.5t-85.5 26.5q-110 0 -180 -80z" />
<glyph unicode="3" horiz-adv-x="574" d="M24 96l63 77q32 -37 82 -59t103 -22q65 0 102 27.5t37 74.5q0 94 -148 94q-67 0 -77 -1v105q12 -1 77 -1q62 0 99.5 22t37.5 66q0 45 -38 69.5t-97 24.5q-98 0 -172 -74l-60 73q89 105 243 105q109 0 175 -48.5t66 -131.5q0 -62 -43.5 -102.5t-101.5 -50.5q57 -5 106 -48 t49 -114q0 -86 -68.5 -140t-182.5 -54q-85 0 -150.5 30t-101.5 78z" />
<glyph unicode="4" horiz-adv-x="580" d="M28 151v94l274 422h161v-413h89v-103h-89v-151h-117v151h-318zM143 254h203v308z" />
<glyph unicode="5" horiz-adv-x="600" d="M56 91l67 80q70 -79 180 -79q62 0 99.5 33.5t37.5 83.5q0 54 -36.5 86.5t-97.5 32.5q-85 0 -146 -58l-83 24v373h437v-103h-320v-193q58 58 151 58q88 0 150.5 -58.5t62.5 -156.5q0 -103 -70.5 -164.5t-183.5 -61.5q-161 0 -248 103z" />
<glyph unicode="6" horiz-adv-x="601" d="M41 332q0 151 77 248t217 97q116 0 192 -74l-55 -89q-56 59 -137 59q-80 0 -128 -64t-48 -156q0 -13 1 -19q25 37 74 65t105 28q95 0 159 -56.5t64 -158.5q0 -95 -68 -159.5t-178 -64.5q-71 0 -125 27.5t-86 75.5t-48 108.5t-16 132.5zM161 248q6 -64 42 -110t107 -46 q62 0 98 35.5t36 80.5q0 58 -39 88.5t-98 30.5q-42 0 -81 -21.5t-65 -57.5z" />
<glyph unicode="7" horiz-adv-x="532" d="M27 564v103h481v-81l-259 -586h-128l252 564h-346z" />
<glyph unicode="8" horiz-adv-x="595" d="M42 171q0 61 42.5 106t107.5 67q-62 20 -100.5 59t-38.5 99q0 44 21.5 79t57 55t78 30.5t88.5 10.5t88 -10.5t78 -30.5t57.5 -55t21.5 -79q0 -113 -140 -158q65 -22 107.5 -67t42.5 -106q0 -86 -73.5 -134.5t-181.5 -48.5t-182 48.5t-74 134.5zM160 186q0 -42 39.5 -68 t98.5 -26q57 0 97 26t40 68q0 45 -46.5 72.5t-90.5 32.5q-26 -3 -55 -13.5t-56 -35t-27 -56.5zM171 484q0 -29 25 -50.5t50 -30t52 -13.5q27 5 52 13.5t49.5 30t24.5 50.5q0 41 -35.5 65t-90.5 24q-56 0 -91.5 -24t-35.5 -65z" />
<glyph unicode="9" horiz-adv-x="601" d="M38 454q0 95 68.5 159.5t177.5 64.5q94 0 157.5 -48.5t90.5 -124t27 -172.5q0 -150 -77 -247t-217 -97q-117 0 -191 74l54 88q56 -58 137 -58q85 0 130.5 64.5t45.5 154.5v20q-26 -37 -75 -65.5t-104 -28.5q-95 0 -159.5 57t-64.5 159zM157 458q0 -58 39 -88.5t97 -30.5 q43 0 82 21t64 57q-5 63 -41.5 110t-107.5 47q-61 0 -97 -36t-36 -80z" />
<glyph unicode=":" horiz-adv-x="245" d="M52 59q0 29 21 49.5t49 20.5t49 -20.5t21 -49.5t-21 -49.5t-49 -20.5t-49 20.5t-21 49.5zM52 420q0 28 21 49t49 21t49 -21t21 -49t-21 -49t-49 -21t-49 21t-21 49z" />
<glyph unicode=";" horiz-adv-x="245" d="M52 63q0 28 20 48.5t48 20.5q32 0 55 -24.5t23 -66.5q0 -50 -25.5 -95.5t-68.5 -75.5l-47 39q25 15 46 42t26 52q-9 -3 -17 -3q-26 0 -43 17.5t-17 45.5zM52 420q0 28 21 49t49 21t49 -21t21 -49t-21 -49t-49 -21t-49 21t-21 49z" />
<glyph unicode="&#x3c;" horiz-adv-x="502" d="M29 297v75l444 208v-81l-365 -165l365 -164v-80z" />
<glyph unicode="=" horiz-adv-x="502" d="M29 205v67h444v-67h-444zM29 395v68h444v-68h-444z" />
<glyph unicode="&#x3e;" horiz-adv-x="502" d="M29 90v80l364 164l-364 165v81l444 -208v-75z" />
<glyph unicode="?" horiz-adv-x="458" d="M13 578q81 99 218 99q93 0 148 -44t55 -113q0 -41 -18.5 -73.5t-45 -53t-52.5 -38.5t-44.5 -39.5t-18.5 -45.5q0 -26 22 -45l-88 -29q-36 34 -36 85q0 41 25 73.5t55.5 50.5t55.5 43t25 53q0 31 -24.5 51.5t-70.5 20.5q-82 0 -139 -70zM155 59q0 29 20.5 49.5t49.5 20.5 t49.5 -20.5t20.5 -49.5t-20.5 -49.5t-49.5 -20.5t-49.5 20.5t-20.5 49.5z" />
<glyph unicode="@" horiz-adv-x="783" d="M35 244q0 159 120 276.5t277 117.5q139 0 227 -90t88 -221q0 -114 -58 -178t-129 -64q-42 0 -66.5 22t-28.5 55l-1 6q-27 -37 -67 -60t-83 -23q-70 0 -112 46t-42 120q0 100 70.5 173.5t159.5 73.5q90 0 126 -71l12 56h94l-54 -255q-2 -12 -2 -23q0 -23 11.5 -35.5 t29.5 -12.5q36 0 68 43t32 127q0 122 -76.5 198t-202.5 76q-143 0 -249.5 -107t-106.5 -248q0 -120 80.5 -200t203.5 -80q97 0 184 55l20 -28q-98 -63 -208 -63q-136 0 -226.5 90.5t-90.5 223.5zM257 258q0 -44 24.5 -71t66.5 -27q73 0 127 76l27 126q-10 24 -33 42.5 t-58 18.5q-64 0 -109 -50.5t-45 -114.5z" />
<glyph unicode="A" d="M1 0l262 667h146l262 -667h-133l-49 128h-306l-49 -128h-133zM216 231h240l-120 318z" />
<glyph unicode="B" horiz-adv-x="648" d="M71 0v667h328q89 0 139.5 -48.5t50.5 -121.5q0 -60 -33.5 -101.5t-82.5 -51.5q54 -8 91.5 -55.5t37.5 -108.5q0 -80 -51.5 -130t-142.5 -50h-337zM188 103h192q48 0 75 24.5t27 68.5q0 39 -27 65.5t-75 26.5h-192v-185zM188 391h187q44 0 69 24t25 62q0 39 -25 63t-69 24 h-187v-173z" />
<glyph unicode="C" horiz-adv-x="682" d="M41 333q0 152 100 248.5t250 96.5q174 0 268 -150l-100 -51q-25 43 -70.5 70t-97.5 27q-99 0 -164.5 -68t-65.5 -173t65.5 -173t164.5 -68q53 0 98 27t70 70l100 -51q-96 -150 -268 -150q-150 0 -250 96.5t-100 248.5z" />
<glyph unicode="D" horiz-adv-x="710" d="M71 0v667h248q155 0 252 -93t97 -241q0 -147 -96.5 -240t-252.5 -93h-248zM188 103h131q105 0 167 66t62 164q0 101 -60.5 166t-168.5 65h-131v-461z" />
<glyph unicode="E" horiz-adv-x="577" d="M71 0v667h457v-103h-340v-173h333v-103h-333v-185h340v-103h-457z" />
<glyph unicode="F" horiz-adv-x="562" d="M71 0v667h457v-103h-340v-173h333v-103h-333v-288h-117z" />
<glyph unicode="G" horiz-adv-x="717" d="M41 333q0 154 101 249.5t249 95.5q172 0 269 -139l-96 -54q-28 39 -73.5 64t-99.5 25q-99 0 -164.5 -68t-65.5 -173t65.5 -173.5t164.5 -68.5q47 0 89.5 18t68.5 42v104h-199v103h316v-250q-109 -121 -275 -121q-148 0 -249 96t-101 250z" />
<glyph unicode="H" horiz-adv-x="723" d="M71 0v667h117v-273h347v273h117v-667h-117v291h-347v-291h-117z" />
<glyph unicode="I" horiz-adv-x="259" d="M71 0v667h117v-667h-117z" />
<glyph unicode="J" horiz-adv-x="481" d="M8 58l54 89q51 -55 114 -55q54 0 85.5 33t31.5 88v454h117v-456q0 -110 -62 -166.5t-163 -56.5q-111 0 -177 70z" />
<glyph unicode="K" horiz-adv-x="621" d="M71 0v667h117v-318l261 318h145l-271 -315l291 -352h-144l-224 281l-58 -68v-213h-117z" />
<glyph unicode="L" horiz-adv-x="517" d="M71 0v667h117v-564h294v-103h-411z" />
<glyph unicode="M" horiz-adv-x="835" d="M71 0v667h165l181 -439l182 439h165v-667h-117v495l-205 -495h-50l-204 495v-495h-117z" />
<glyph unicode="N" horiz-adv-x="720" d="M71 0v667h120l341 -463v463h117v-667h-113l-348 476v-476h-117z" />
<glyph unicode="O" horiz-adv-x="765" d="M41 333q0 150 96 247.5t245 97.5t245 -97.5t96 -247.5t-96 -247.5t-245 -97.5t-245 97.5t-96 247.5zM161 333q0 -105 60.5 -173t160.5 -68q99 0 160 68.5t61 172.5q0 105 -61 173t-160 68q-100 0 -160.5 -68t-60.5 -173z" />
<glyph unicode="P" horiz-adv-x="608" d="M71 0v667h293q101 0 159.5 -60t58.5 -149q0 -88 -58.5 -148.5t-159.5 -60.5h-176v-249h-117zM188 352h160q50 0 82 29t32 77t-32 77t-82 29h-160v-212z" />
<glyph unicode="Q" horiz-adv-x="765" d="M41 333q0 150 96 247.5t245 97.5t245 -97.5t96 -247.5q0 -143 -89 -240l55 -62l-81 -68l-58 65q-74 -40 -168 -40q-149 0 -245 97.5t-96 247.5zM161 333q0 -105 60.5 -173t160.5 -68q51 0 94 20l-82 94l81 67l82 -94q46 63 46 154q0 105 -61 173t-160 68 q-100 0 -160.5 -68t-60.5 -173z" />
<glyph unicode="R" horiz-adv-x="628" d="M71 0v667h293q98 0 158 -58t60 -151q0 -84 -46 -134.5t-112 -61.5l163 -262h-135l-148 249h-116v-249h-117zM188 352h160q50 0 82 29t32 77t-32 77t-82 29h-160v-212z" />
<glyph unicode="S" horiz-adv-x="594" d="M28 94l65 90q86 -92 211 -92q67 0 100.5 27t33.5 64q0 38 -40 60.5t-97 35.5t-114.5 31t-97.5 61t-40 111q0 84 67.5 139.5t175.5 55.5q154 0 250 -93l-67 -87q-76 76 -193 76q-52 0 -82.5 -22.5t-30.5 -60.5q0 -25 21.5 -42t55.5 -27.5t75.5 -20.5t83 -24.5t75.5 -35.5 t55.5 -58t21.5 -88q0 -90 -65 -148t-193 -58q-172 0 -271 106z" />
<glyph unicode="T" horiz-adv-x="577" d="M28 564v103h521v-103h-202v-564h-117v564h-202z" />
<glyph unicode="U" horiz-adv-x="719" d="M71 263v404h118v-400q0 -81 44.5 -128t126.5 -47t126 47t44 128v400h118v-403q0 -128 -73.5 -202t-214.5 -74q-142 0 -215.5 74t-73.5 201z" />
<glyph unicode="V" d="M1 667h133l202 -540l202 540h133l-262 -667h-146z" />
<glyph unicode="W" horiz-adv-x="903" d="M6 667h131l130 -514l138 514h93l138 -514l129 514h131l-190 -667h-125l-130 492l-129 -492h-125z" />
<glyph unicode="X" horiz-adv-x="661" d="M3 0l250 342l-235 325h140l172 -245l171 245h141l-234 -324l249 -343h-140l-187 261l-187 -261h-140z" />
<glyph unicode="Y" horiz-adv-x="637" d="M1 667h134l184 -286l182 286h134l-258 -390v-277h-117v277z" />
<glyph unicode="Z" horiz-adv-x="589" d="M44 0v95l341 469h-341v103h493v-95l-341 -469h348v-103h-500z" />
<glyph unicode="[" horiz-adv-x="264" d="M44 -190v868h203v-72h-126v-724h126v-72h-203z" />
<glyph unicode="\" horiz-adv-x="315" d="M0 687h78l237 -707h-78z" />
<glyph unicode="]" horiz-adv-x="264" d="M17 -118h126v724h-126v72h203v-868h-203v72z" />
<glyph unicode="^" horiz-adv-x="437" d="M19 333l161 334h78l160 -334h-80l-120 261l-119 -261h-80z" />
<glyph unicode="_" horiz-adv-x="564" d="M-3 -40h570v-72h-570v72z" />
<glyph unicode="`" horiz-adv-x="240" d="M0 700h100l140 -144h-75z" />
<glyph unicode="a" horiz-adv-x="536" d="M39 148q0 77 50.5 117t117.5 40q103 0 156 -62v72q0 42 -31 66t-82 24q-81 0 -143 -61l-43 73q82 78 203 78q89 0 145 -42t56 -133v-320h-105v52q-56 -64 -156 -64q-66 0 -117 42.5t-51 117.5zM145 146q0 -39 29 -62.5t74 -23.5q79 0 115 50v73q-36 50 -115 50 q-45 0 -74 -24t-29 -63z" />
<glyph unicode="b" horiz-adv-x="581" d="M68 0v667h105v-251q59 79 155 79q94 0 154 -69.5t60 -184.5q0 -117 -60 -185t-154 -68q-95 0 -155 78v-66h-105zM173 145q17 -27 52.5 -45.5t71.5 -18.5q62 0 99.5 44.5t37.5 115.5t-37.5 116t-99.5 45q-36 0 -71 -19t-53 -47v-191z" />
<glyph unicode="c" horiz-adv-x="497" d="M38 242q0 110 70 181.5t180 71.5q121 0 185 -86l-69 -64q-40 57 -111 57q-66 0 -106 -44.5t-40 -115.5t40 -116t106 -45q69 0 111 57l69 -64q-64 -86 -185 -86q-110 0 -180 71.5t-70 182.5z" />
<glyph unicode="d" horiz-adv-x="581" d="M38 241q0 116 60 185t155 69t155 -79v251h105v-667h-105v66q-60 -78 -155 -78t-155 68t-60 185zM147 241q0 -71 37 -115.5t99 -44.5q37 0 72 18t53 46v192q-18 28 -53 46.5t-72 18.5q-62 0 -99 -45t-37 -116z" />
<glyph unicode="e" horiz-adv-x="557" d="M38 242q0 106 69.5 179.5t175.5 73.5q107 0 172.5 -74t65.5 -189v-25h-373q6 -57 47 -95t107 -38q37 0 74.5 14t62.5 39l48 -69q-73 -70 -196 -70q-110 0 -181.5 70.5t-71.5 183.5zM147 281h272q-2 50 -36.5 89t-99.5 39q-62 0 -97 -38.5t-39 -89.5z" />
<glyph unicode="f" horiz-adv-x="308" d="M13 391v92h80v27q0 78 41.5 122.5t111.5 44.5q75 0 116 -42l-41 -65q-23 21 -56 21q-31 0 -49 -20.5t-18 -60.5v-27h98v-92h-98v-391h-105v391h-80z" />
<glyph unicode="g" horiz-adv-x="580" d="M38 247q0 115 59.5 181.5t154.5 66.5t155 -79v67h105v-458q0 -62 -21.5 -107.5t-58.5 -69t-78.5 -34t-89.5 -10.5q-123 0 -202 72l49 76q54 -62 153 -62q60 0 101.5 31.5t41.5 99.5v58q-62 -80 -155 -80q-95 0 -154.5 66t-59.5 182zM147 247q0 -70 37 -112.5t99 -42.5 q36 0 71 19t53 46v180q-18 27 -53 46t-71 19q-62 0 -99 -42.5t-37 -112.5z" />
<glyph unicode="h" horiz-adv-x="568" d="M68 0v667h105v-250q27 32 72.5 55t98.5 23q156 0 156 -153v-342h-105v304q0 53 -25.5 75.5t-72.5 22.5q-37 0 -70 -19t-54 -46v-337h-105z" />
<glyph unicode="i" horiz-adv-x="241" d="M55 607q0 27 19.5 46t45.5 19q27 0 46 -19t19 -46t-19 -46t-46 -19q-26 0 -45.5 19t-19.5 46zM68 0v483h105v-483h-105z" />
<glyph unicode="j" horiz-adv-x="241" d="M-101 -161l31 78q30 -27 67 -27q32 0 51.5 20.5t19.5 61.5v511h105v-511q0 -79 -41 -123.5t-119 -44.5q-40 0 -64 8t-50 27zM55 607q0 27 19.5 46t45.5 19q27 0 46 -19t19 -46t-19 -46t-46 -19q-26 0 -45.5 19t-19.5 46z" />
<glyph unicode="k" horiz-adv-x="526" d="M68 0v667h105v-417l213 233h130l-201 -219l205 -264h-132l-148 199l-67 -69v-130h-105z" />
<glyph unicode="l" horiz-adv-x="241" d="M68 0v667h105v-667h-105z" />
<glyph unicode="m" horiz-adv-x="833" d="M68 0v483h105v-66q18 27 62.5 52.5t94.5 25.5q105 0 132 -89q23 36 68 62.5t96 26.5q139 0 139 -146v-349h-105v315q0 87 -79 87q-33 0 -64 -19t-48 -45v-338h-105v315q0 87 -80 87q-32 0 -62.5 -19t-48.5 -46v-337h-105z" />
<glyph unicode="n" horiz-adv-x="567" d="M68 0v483h105v-66q27 32 72 55t98 23q77 0 116.5 -40t39.5 -115v-340h-105v302q0 100 -97 100q-38 0 -71 -19t-53 -46v-337h-105z" />
<glyph unicode="o" horiz-adv-x="573" d="M38 242q0 107 68 180t180 73q113 0 181 -73t68 -180q0 -108 -68 -181t-181 -73q-112 0 -180 73.5t-68 180.5zM147 242q0 -68 37.5 -114.5t101.5 -46.5q65 0 102.5 46.5t37.5 114.5q0 67 -37.5 113.5t-102.5 46.5q-64 0 -101.5 -46.5t-37.5 -113.5z" />
<glyph unicode="p" horiz-adv-x="578" d="M68 -184v667h105v-66q58 78 155 78q95 0 154.5 -68t59.5 -185t-59.5 -185.5t-154.5 -68.5q-96 0 -155 79v-251h-105zM173 146q18 -27 53 -46t71 -19q62 0 99 45t37 116t-37 115.5t-99 44.5q-36 0 -71 -19t-53 -46v-191z" />
<glyph unicode="q" horiz-adv-x="578" d="M36 242q0 117 59.5 185t154.5 68q96 0 155 -78v66h105v-667h-105v251q-59 -79 -155 -79q-95 0 -154.5 68.5t-59.5 185.5zM145 242q0 -71 37 -116t99 -45q36 0 71 19t53 46v191q-18 27 -53 46t-71 19q-62 0 -99 -44.5t-37 -115.5z" />
<glyph unicode="r" horiz-adv-x="347" d="M68 0v483h105v-71q28 36 70 59t87 23v-104q-14 3 -33 3q-33 0 -70.5 -19.5t-53.5 -44.5v-329h-105z" />
<glyph unicode="s" horiz-adv-x="472" d="M26 63l48 76q27 -28 73 -48t91 -20q46 0 70.5 18t24.5 47q0 26 -30 40.5t-73 23t-86 21t-73 44.5t-30 83q0 62 51 104.5t139 42.5q111 0 188 -68l-44 -74q-23 26 -61 42t-82 16q-41 0 -65.5 -16.5t-24.5 -42.5q0 -20 21.5 -32.5t54 -18.5t70.5 -16.5t70.5 -24.5t54 -45.5 t21.5 -76.5q0 -66 -53 -108t-148 -42q-130 0 -207 75z" />
<glyph unicode="t" horiz-adv-x="319" d="M9 391v92h80v132h105v-132h98v-92h-98v-253q0 -26 12 -41.5t34 -15.5q32 0 47 17l25 -79q-33 -31 -99 -31q-61 0 -92.5 32t-31.5 92v279h-80z" />
<glyph unicode="u" horiz-adv-x="567" d="M68 141v342h105v-304q0 -53 25 -75.5t72 -22.5q38 0 71 18t53 45v339h105v-483h-105v64q-68 -76 -171 -76q-155 0 -155 153z" />
<glyph unicode="v" horiz-adv-x="503" d="M-2 483h112l141 -362l141 362h113l-197 -483h-113z" />
<glyph unicode="w" horiz-adv-x="754" d="M5 483h109l102 -351l115 351h92l115 -351l102 351h109l-150 -483h-110l-112 354l-112 -354h-110z" />
<glyph unicode="x" horiz-adv-x="496" d="M5 0l177 248l-167 235h118l115 -164l114 164h118l-167 -235l178 -248h-118l-125 178l-126 -178h-117z" />
<glyph unicode="y" horiz-adv-x="503" d="M-2 483h112l141 -362l141 362h113l-233 -570q-43 -107 -166 -109q-33 0 -59 7l16 94q18 -8 40 -8q51 0 69 42l24 55z" />
<glyph unicode="z" horiz-adv-x="476" d="M46 0v79l239 312h-239v92h379v-77l-241 -315h245v-91h-383z" />
<glyph unicode="{" horiz-adv-x="276" d="M4 213v62q25 0 38.5 19.5t13.5 48.5v186q0 66 42.5 107.5t99.5 41.5h61v-72h-61q-27 0 -45.5 -21.5t-18.5 -55.5v-196q0 -69 -46 -89q46 -20 46 -89v-196q0 -33 18.5 -55t45.5 -22h61v-72h-61q-58 0 -100 41t-42 107v187q0 29 -13.5 48.5t-38.5 19.5z" />
<glyph unicode="|" horiz-adv-x="214" d="M71 -20v707h72v-707h-72z" />
<glyph unicode="}" horiz-adv-x="276" d="M17 -118h61q27 0 45.5 22t18.5 55v196q0 69 46 89q-46 20 -46 89v196q0 34 -18.5 55.5t-45.5 21.5h-61v72h61q57 0 99.5 -41.5t42.5 -107.5v-186q0 -29 13.5 -48.5t38.5 -19.5v-62q-25 0 -38.5 -19.5t-13.5 -48.5v-187q0 -66 -42 -107t-100 -41h-61v72z" />
<glyph unicode="~" horiz-adv-x="507" d="M26 425q5 51 13 89.5t23.5 75t43 56.5t65.5 20q43 0 70 -28.5t35.5 -63t23 -63t36.5 -28.5q56 0 71 184l73 -9q-4 -51 -12 -89.5t-23.5 -75t-43 -56.5t-65.5 -20q-43 0 -70 28.5t-35.5 62.5t-23 62.5t-36.5 28.5q-54 0 -71 -183z" />
<glyph unicode="&#xa1;" horiz-adv-x="245" d="M53 424q0 28 20.5 48.5t48.5 20.5t49 -20.5t21 -48.5t-21 -49t-49 -21t-48.5 20.5t-20.5 49.5zM59 -184l18 462h91l19 -462h-128z" />
<glyph unicode="&#xa2;" horiz-adv-x="497" d="M38 242q0 98 57.5 167t150.5 83v73h78v-72q95 -12 149 -84l-69 -64q-31 43 -80 54v-315q49 11 80 54l69 -64q-54 -72 -149 -84v-90h-78v91q-93 14 -150.5 82.5t-57.5 168.5zM147 242q0 -57 26.5 -98.5t72.5 -55.5v307q-46 -15 -72.5 -55.5t-26.5 -97.5z" />
<glyph unicode="&#xa3;" horiz-adv-x="536" d="M21 268v70h83q-18 23 -28.5 39t-20 42.5t-9.5 54.5q0 87 71 145t164 58q158 0 219 -117l-93 -55q-13 33 -44 54.5t-69 21.5q-51 0 -86 -30t-35 -79q0 -17 3 -32t11 -30.5t13.5 -23.5t18 -25t16.5 -23h147v-70h-116q3 -14 3 -29q0 -75 -70 -120q24 8 51 8q32 0 72 -18 t66 -18q60 0 90 38l47 -93q-47 -49 -142 -49q-47 0 -98 22.5t-82 22.5q-44 0 -117 -39l-40 82q119 55 119 137q0 28 -13 56h-131z" />
<glyph unicode="&#xa4;" horiz-adv-x="612" d="M25 552l63 62l76 -77q61 39 142 39q80 0 141 -39l76 77l63 -63l-75 -75q43 -63 43 -143q0 -81 -43 -144l75 -73l-63 -62l-76 74q-59 -39 -141 -39q-81 0 -143 40l-74 -75l-63 62l74 74q-42 64 -42 143q0 80 43 143zM164 333q0 -63 38 -106.5t104 -43.5t104 43.5t38 106.5 q0 62 -38 105t-104 43t-104 -43t-38 -105z" />
<glyph unicode="&#xa5;" horiz-adv-x="637" d="M1 667h134l184 -286l182 286h134l-214 -323h194v-67h-238v-92h238v-67h-238v-118h-117v118h-237v67h237v92h-237v67h192z" />
<glyph unicode="&#xa6;" horiz-adv-x="214" d="M71 -20v316h72v-316h-72zM71 371v316h72v-316h-72z" />
<glyph unicode="&#xa7;" horiz-adv-x="477" d="M28 -3l46 67q27 -29 69.5 -50t89.5 -21q45 0 72.5 18.5t27.5 51.5q0 25 -21.5 41t-54 23.5t-70.5 18.5t-70.5 24t-54 42.5t-21.5 72.5q0 48 30.5 80t74.5 46q-105 37 -105 125q0 60 52.5 100.5t137.5 40.5q120 0 187 -69l-43 -63q-52 57 -140 57q-42 0 -67.5 -17.5 t-25.5 -47.5q0 -26 30 -41t73 -23.5t86 -21.5t73 -45.5t30 -84.5q0 -87 -87 -128q87 -36 87 -122q0 -71 -55.5 -111.5t-145.5 -40.5q-121 0 -205 78zM142 299q0 -19 9 -32t29.5 -22.5t36 -14t45.5 -11.5q69 29 69 84q0 34 -26 52t-70 29q-51 -13 -72 -33.5t-21 -51.5z" />
<glyph unicode="&#xa8;" horiz-adv-x="285" d="M-21 608q0 24 17 41t42 17q24 0 41 -17t17 -41q0 -25 -17 -42t-41 -17q-25 0 -42 17t-17 42zM188 608q0 24 17.5 41t41.5 17t41.5 -17t17.5 -41q0 -25 -17.5 -42t-41.5 -17t-41.5 17t-17.5 42z" />
<glyph unicode="&#xa9;" horiz-adv-x="778" d="M44 334q0 143 101 244t244 101t244 -101t101 -244t-101 -244t-244 -101t-244 101.5t-101 243.5zM78 334q0 -128 91.5 -219.5t219.5 -91.5t219.5 91.5t91.5 219.5t-91.5 219.5t-219.5 91.5t-219.5 -91.5t-91.5 -219.5zM185 335q0 91 60.5 151t147.5 60q91 0 147 -66 l-29 -28q-42 57 -118 57q-69 0 -117.5 -49t-48.5 -125q0 -75 49 -125.5t117 -50.5q76 0 119 58l29 -28q-57 -67 -148 -67q-87 0 -147.5 61t-60.5 152z" />
<glyph unicode="&#xaa;" horiz-adv-x="382" d="M35 422q0 49 33.5 75.5t77.5 26.5q68 0 104 -40v46q0 27 -20.5 43t-52.5 16q-55 0 -95 -43l-31 50q56 52 138 52q61 0 99.5 -28t38.5 -91v-203h-77v33q-37 -41 -104 -41q-44 0 -77.5 27.5t-33.5 76.5zM112 422q0 -25 18.5 -40t46.5 -15q49 0 73 33v44q-24 32 -73 32 q-28 0 -46.5 -15t-18.5 -39z" />
<glyph unicode="&#xab;" horiz-adv-x="489" d="M30 243l160 177h99l-160 -177l160 -180h-99zM200 243l160 177h99l-160 -177l160 -180h-99z" />
<glyph unicode="&#xac;" horiz-adv-x="510" d="M29 395v68h444v-258h-70v190h-374z" />
<glyph unicode="&#xad;" horiz-adv-x="300" d="M30 197v90h240v-90h-240z" />
<glyph unicode="&#xae;" horiz-adv-x="494" d="M35 465q0 88 62 150t150 62q89 0 150.5 -61.5t61.5 -150.5q0 -88 -62 -150t-150 -62t-150 62t-62 150zM65 465q0 -75 53 -128.5t129 -53.5q75 0 128 53.5t53 128.5q0 76 -53 128.5t-128 52.5q-76 0 -129 -52.5t-53 -128.5zM166 343v243h99q32 0 55 -20.5t23 -53.5 q0 -35 -22.5 -53.5t-39.5 -18.5l65 -97h-41l-63 96h-43v-96h-33zM199 469h66q17 0 30.5 12.5t13.5 30.5q0 19 -13.5 32t-30.5 13h-66v-88z" />
<glyph unicode="&#xaf;" horiz-adv-x="363" d="M0 566v62h363v-62h-363z" />
<glyph unicode="&#xb0;" horiz-adv-x="302" d="M21 547q0 53 38 91.5t91 38.5q54 0 92 -38.5t38 -91.5q0 -54 -38 -91.5t-92 -37.5q-53 0 -91 37.5t-38 91.5zM82 547q0 -29 20 -49t48 -20q29 0 49.5 20.5t20.5 48.5q0 29 -21 49.5t-49 20.5t-48 -20.5t-20 -49.5z" />
<glyph unicode="&#xb1;" horiz-adv-x="502" d="M29 0v67h444v-67h-444zM29 325v67h185v201h74v-201h185v-67h-185v-208h-74v208h-185z" />
<glyph unicode="&#xb2;" horiz-adv-x="393" d="M41 762q55 65 155 65q66 0 109.5 -32t43.5 -90q0 -51 -44.5 -101.5t-139.5 -117.5h187v-65h-304v59q128 91 174.5 136t46.5 83q0 31 -21.5 47t-53.5 16q-34 0 -64 -15t-46 -36z" />
<glyph unicode="&#xb3;" horiz-adv-x="393" d="M36 478l41 52q45 -51 115 -51q39 0 60.5 15.5t21.5 41.5q0 57 -95 57q-37 0 -43 -1v65q8 -1 42 -1q89 0 89 53q0 25 -22.5 39t-57.5 14q-62 0 -107 -46l-39 48q58 63 154 63q70 0 111 -29.5t41 -78.5q0 -37 -26.5 -61.5t-62.5 -30.5q35 -3 65.5 -28t30.5 -68 q0 -52 -43.5 -84.5t-115.5 -32.5q-107 0 -159 64z" />
<glyph unicode="&#xb4;" horiz-adv-x="240" d="M0 556l140 144h100l-165 -144h-75z" />
<glyph unicode="&#xb5;" horiz-adv-x="581" d="M68 -184v667h105v-304q0 -99 98 -99q37 0 70 18.5t53 45.5v339h105v-352q0 -23 11.5 -36.5t31.5 -13.5q9 0 19 2l7 -89q-20 -6 -50 -6q-97 0 -119 86q-25 -38 -62.5 -62t-80.5 -24q-60 0 -83 36v-208h-105z" />
<glyph unicode="&#xb6;" horiz-adv-x="449" d="M27 495q0 71 50.5 121.5t121.5 50.5h193v-767h-55v712h-83v-712h-55v423q-71 0 -121.5 50.5t-50.5 121.5z" />
<glyph unicode="&#xb7;" horiz-adv-x="245" d="M52 244q0 28 21 49t49 21t49 -21t21 -49t-21 -48.5t-49 -20.5t-49 20.5t-21 48.5z" />
<glyph unicode="&#xb8;" horiz-adv-x="214" d="M0 -163l22 46q36 -29 81 -29q23 0 39.5 9.5t16.5 26.5q0 30 -33 30q-21 0 -34 -15l-41 23l31 83h55l-26 -64q16 11 36 11q29 0 48 -19.5t19 -49.5q0 -37 -31 -60t-77 -23q-67 0 -106 31z" />
<glyph unicode="&#xb9;" horiz-adv-x="264" d="M10 697l124 124h70v-400h-81v296l-67 -69z" />
<glyph unicode="&#xba;" horiz-adv-x="405" d="M34 483q0 70 46.5 117.5t121.5 47.5q77 0 123 -47.5t46 -117.5t-46 -117.5t-123 -47.5q-75 0 -121.5 47.5t-46.5 117.5zM114 483q0 -46 23.5 -74t64.5 -28t65 28t24 74q0 45 -24 72.5t-65 27.5t-64.5 -27.5t-23.5 -72.5z" />
<glyph unicode="&#xbb;" horiz-adv-x="489" d="M30 63l160 180l-160 177h99l160 -177l-160 -180h-99zM200 63l160 180l-160 177h99l160 -177l-160 -180h-99z" />
<glyph unicode="&#xbc;" horiz-adv-x="806" d="M10 543l124 124h70v-400h-81v296l-67 -69zM125 0l426 667h68l-427 -667h-67zM445 92v56l164 252h112v-244h55v-64h-55v-92h-80v92h-196zM525 156h116v175z" />
<glyph unicode="&#xbd;" horiz-adv-x="841" d="M10 543l124 124h70v-400h-81v296l-67 -69zM125 0l426 667h68l-427 -667h-67zM488 341q55 65 155 65q66 0 109.5 -32t43.5 -90q0 -51 -44.5 -101.5t-139.5 -117.5h187v-65h-304v59q128 91 174.5 136t46.5 83q0 31 -21.5 47t-53.5 16q-34 0 -64 -15t-46 -36z" />
<glyph unicode="&#xbe;" horiz-adv-x="902" d="M36 324l41 52q45 -51 115 -51q39 0 60.5 15.5t21.5 41.5q0 57 -95 57q-37 0 -43 -1v65q8 -1 42 -1q89 0 89 53q0 25 -22.5 39t-57.5 14q-62 0 -107 -46l-39 48q58 63 154 63q70 0 111 -29.5t41 -78.5q0 -37 -26.5 -61.5t-62.5 -30.5q35 -3 65.5 -28t30.5 -68 q0 -52 -43.5 -84.5t-115.5 -32.5q-107 0 -159 64zM221 0l426 667h68l-427 -667h-67zM542 92v56l164 252h112v-244h55v-64h-55v-92h-80v92h-196zM622 156h116v175z" />
<glyph unicode="&#xbf;" horiz-adv-x="396" d="M24 -39q0 41 18.5 73.5t45 53t52.5 38.5t44.5 39.5t18.5 45.5q0 26 -22 45l88 29q36 -35 36 -85q0 -41 -25 -73.5t-55.5 -50.5t-55.5 -43t-25 -53q0 -31 24.5 -51.5t70.5 -20.5q82 0 139 70l67 -75q-81 -99 -218 -99q-93 0 -148 44t-55 113zM163 423q0 29 20.5 49.5 t49.5 20.5t49.5 -20.5t20.5 -49.5q0 -28 -21 -48.5t-49 -20.5t-49 20.5t-21 48.5z" />
<glyph unicode="&#xc0;" d="M1 0l262 667h146l262 -667h-133l-49 128h-306l-49 -128h-133zM158 867h100l140 -144h-75zM216 231h240l-120 318z" />
<glyph unicode="&#xc1;" d="M1 0l262 667h146l262 -667h-133l-49 128h-306l-49 -128h-133zM216 231h240l-120 318zM276 723l140 144h100l-165 -144h-75z" />
<glyph unicode="&#xc2;" d="M1 0l262 667h146l262 -667h-133l-49 128h-306l-49 -128h-133zM195 723l93 144h96l96 -144h-67l-77 96l-75 -96h-66zM216 231h240l-120 318z" />
<glyph unicode="&#xc3;" d="M1 0l262 667h146l262 -667h-133l-49 128h-306l-49 -128h-133zM176 727q0 62 26.5 98t76.5 36q30 0 50.5 -19.5t36 -39t32.5 -19.5q41 0 41 72h58q0 -62 -26.5 -98t-76.5 -36q-19 0 -34.5 8t-25.5 19.5t-18.5 23t-19 19.5t-21.5 8q-18 0 -30 -18t-12 -54h-57zM216 231h240 l-120 318z" />
<glyph unicode="&#xc4;" d="M1 0l262 667h146l262 -667h-133l-49 128h-306l-49 -128h-133zM173 775q0 24 17 41t42 17q24 0 41 -17t17 -41q0 -25 -17 -42t-41 -17q-25 0 -42 17t-17 42zM216 231h240l-120 318zM382 775q0 24 17.5 41t41.5 17t41.5 -17t17.5 -41q0 -25 -17.5 -42t-41.5 -17t-41.5 17 t-17.5 42z" />
<glyph unicode="&#xc5;" d="M1 0l262 667h146l262 -667h-133l-49 128h-306l-49 -128h-133zM216 231h240l-120 318zM235 791q0 42 30 72.5t72 30.5t71.5 -30.5t29.5 -72.5t-29.5 -72t-71.5 -30t-72 30t-30 72zM285 791q0 -21 15.5 -36.5t36.5 -15.5t36 15.5t15 36.5q0 22 -14.5 37t-36.5 15 q-21 0 -36.5 -15t-15.5 -37z" />
<glyph unicode="&#xc6;" horiz-adv-x="959" d="M-2 0l410 667h504v-103h-340v-173h333v-103h-333v-185h340v-103h-457v128h-247l-77 -128h-133zM264 231h191v318z" />
<glyph unicode="&#xc7;" horiz-adv-x="682" d="M41 333q0 152 100 248.5t250 96.5q174 0 268 -150l-100 -51q-25 43 -70.5 70t-97.5 27q-99 0 -164.5 -68t-65.5 -173t65.5 -173t164.5 -68q53 0 98 27t70 70l100 -51q-91 -144 -254 -150l-15 -37q16 11 36 11q29 0 48 -19.5t19 -49.5q0 -37 -31 -60t-77 -23 q-67 0 -106 31l22 46q36 -29 81 -29q23 0 39.5 9.5t16.5 26.5q0 30 -33 30q-21 0 -34 -15l-41 23l21 58q-135 13 -222.5 107.5t-87.5 235.5z" />
<glyph unicode="&#xc8;" horiz-adv-x="577" d="M71 0v667h457v-103h-340v-173h333v-103h-333v-185h340v-103h-457zM120 867h100l140 -144h-75z" />
<glyph unicode="&#xc9;" horiz-adv-x="577" d="M71 0v667h457v-103h-340v-173h333v-103h-333v-185h340v-103h-457zM238 723l140 144h100l-165 -144h-75z" />
<glyph unicode="&#xca;" horiz-adv-x="577" d="M71 0v667h457v-103h-340v-173h333v-103h-333v-185h340v-103h-457zM157 723l93 144h96l96 -144h-67l-77 96l-75 -96h-66z" />
<glyph unicode="&#xcb;" horiz-adv-x="577" d="M71 0v667h457v-103h-340v-173h333v-103h-333v-185h340v-103h-457zM136 775q0 24 17 41t42 17q24 0 41 -17t17 -41q0 -25 -17 -42t-41 -17q-25 0 -42 17t-17 42zM345 775q0 24 17.5 41t41.5 17t41.5 -17t17.5 -41q0 -25 -17.5 -42t-41.5 -17t-41.5 17t-17.5 42z" />
<glyph unicode="&#xcc;" horiz-adv-x="259" d="M-50 867h100l140 -144h-75zM71 0v667h117v-667h-117z" />
<glyph unicode="&#xcd;" horiz-adv-x="259" d="M70 723l140 144h100l-165 -144h-75zM71 0v667h117v-667h-117z" />
<glyph unicode="&#xce;" horiz-adv-x="259" d="M-12 723l93 144h96l96 -144h-67l-77 96l-75 -96h-66zM71 0v667h117v-667h-117z" />
<glyph unicode="&#xcf;" horiz-adv-x="259" d="M-33 775q0 24 17 41t42 17q24 0 41 -17t17 -41q0 -25 -17 -42t-41 -17q-25 0 -42 17t-17 42zM71 0v667h117v-667h-117zM176 775q0 24 17.5 41t41.5 17t41.5 -17t17.5 -41q0 -25 -17.5 -42t-41.5 -17t-41.5 17t-17.5 42z" />
<glyph unicode="&#xd0;" horiz-adv-x="736" d="M9 285v86h88v296h248q155 0 252 -93t97 -241q0 -147 -96.5 -240t-252.5 -93h-248v285h-88zM214 103h131q105 0 167 66t62 164q0 101 -60.5 166t-168.5 65h-131v-193h158v-86h-158v-182z" />
<glyph unicode="&#xd1;" horiz-adv-x="720" d="M71 0v667h120l341 -463v463h117v-667h-113l-348 476v-476h-117zM198 727q0 62 26.5 98t76.5 36q30 0 50.5 -19.5t36 -39t32.5 -19.5q41 0 41 72h58q0 -62 -26.5 -98t-76.5 -36q-19 0 -34.5 8t-25.5 19.5t-18.5 23t-19 19.5t-21.5 8q-18 0 -30 -18t-12 -54h-57z" />
<glyph unicode="&#xd2;" horiz-adv-x="765" d="M41 333q0 150 96 247.5t245 97.5t245 -97.5t96 -247.5t-96 -247.5t-245 -97.5t-245 97.5t-96 247.5zM161 333q0 -105 60.5 -173t160.5 -68q99 0 160 68.5t61 172.5q0 105 -61 173t-160 68q-100 0 -160.5 -68t-60.5 -173zM204 867h100l140 -144h-75z" />
<glyph unicode="&#xd3;" horiz-adv-x="765" d="M41 333q0 150 96 247.5t245 97.5t245 -97.5t96 -247.5t-96 -247.5t-245 -97.5t-245 97.5t-96 247.5zM161 333q0 -105 60.5 -173t160.5 -68q99 0 160 68.5t61 172.5q0 105 -61 173t-160 68q-100 0 -160.5 -68t-60.5 -173zM322 723l140 144h100l-165 -144h-75z" />
<glyph unicode="&#xd4;" horiz-adv-x="765" d="M41 333q0 150 96 247.5t245 97.5t245 -97.5t96 -247.5t-96 -247.5t-245 -97.5t-245 97.5t-96 247.5zM161 333q0 -105 60.5 -173t160.5 -68q99 0 160 68.5t61 172.5q0 105 -61 173t-160 68q-100 0 -160.5 -68t-60.5 -173zM242 723l93 144h96l96 -144h-67l-77 96l-75 -96 h-66z" />
<glyph unicode="&#xd5;" horiz-adv-x="765" d="M41 333q0 150 96 247.5t245 97.5t245 -97.5t96 -247.5t-96 -247.5t-245 -97.5t-245 97.5t-96 247.5zM161 333q0 -105 60.5 -173t160.5 -68q99 0 160 68.5t61 172.5q0 105 -61 173t-160 68q-100 0 -160.5 -68t-60.5 -173zM222 727q0 62 26.5 98t76.5 36q29 0 50 -19.5 t36.5 -39t32.5 -19.5q41 0 41 72h58q0 -62 -26.5 -98t-76.5 -36q-19 0 -34.5 8t-25.5 19.5t-18.5 23t-19 19.5t-21.5 8q-18 0 -30 -18t-12 -54h-57z" />
<glyph unicode="&#xd6;" horiz-adv-x="765" d="M41 333q0 150 96 247.5t245 97.5t245 -97.5t96 -247.5t-96 -247.5t-245 -97.5t-245 97.5t-96 247.5zM161 333q0 -105 60.5 -173t160.5 -68q99 0 160 68.5t61 172.5q0 105 -61 173t-160 68q-100 0 -160.5 -68t-60.5 -173zM219 775q0 24 17 41t42 17q24 0 41 -17t17 -41 q0 -25 -17 -42t-41 -17q-25 0 -42 17t-17 42zM428 775q0 24 17.5 41t41.5 17t41.5 -17t17.5 -41q0 -25 -17.5 -42t-41.5 -17t-41.5 17t-17.5 42z" />
<glyph unicode="&#xd7;" horiz-adv-x="502" d="M59 189l144 145l-144 144l48 48l144 -145l144 145l48 -48l-144 -144l144 -145l-48 -47l-144 144l-144 -144z" />
<glyph unicode="&#xd8;" horiz-adv-x="765" d="M41 333q0 150 96 247.5t245 97.5q93 0 170 -41l22 30h87l-51 -71q113 -100 113 -263q0 -150 -96 -247.5t-245 -97.5q-101 0 -179 46l-25 -34h-87l55 76q-105 99 -105 257zM161 333q0 -98 52 -164l275 379q-47 26 -106 26q-100 0 -160.5 -68t-60.5 -173zM267 122 q51 -30 115 -30q99 0 160 68.5t61 172.5t-60 172z" />
<glyph unicode="&#xd9;" horiz-adv-x="719" d="M71 263v404h118v-400q0 -81 44.5 -128t126.5 -47t126 47t44 128v400h118v-403q0 -128 -73.5 -202t-214.5 -74q-142 0 -215.5 74t-73.5 201zM181 867h100l140 -144h-75z" />
<glyph unicode="&#xda;" horiz-adv-x="719" d="M71 263v404h118v-400q0 -81 44.5 -128t126.5 -47t126 47t44 128v400h118v-403q0 -128 -73.5 -202t-214.5 -74q-142 0 -215.5 74t-73.5 201zM299 723l140 144h100l-165 -144h-75z" />
<glyph unicode="&#xdb;" horiz-adv-x="719" d="M71 263v404h118v-400q0 -81 44.5 -128t126.5 -47t126 47t44 128v400h118v-403q0 -128 -73.5 -202t-214.5 -74q-142 0 -215.5 74t-73.5 201zM219 723l93 144h96l96 -144h-67l-77 96l-75 -96h-66z" />
<glyph unicode="&#xdc;" horiz-adv-x="719" d="M71 263v404h118v-400q0 -81 44.5 -128t126.5 -47t126 47t44 128v400h118v-403q0 -128 -73.5 -202t-214.5 -74q-142 0 -215.5 74t-73.5 201zM198 775q0 24 17 41t42 17q24 0 41 -17t17 -41q0 -25 -17 -42t-41 -17q-25 0 -42 17t-17 42zM407 775q0 24 17.5 41t41.5 17 t41.5 -17t17.5 -41q0 -25 -17.5 -42t-41.5 -17t-41.5 17t-17.5 42z" />
<glyph unicode="&#xdd;" horiz-adv-x="637" d="M1 667h134l184 -286l182 286h134l-258 -390v-277h-117v277zM257 723l140 144h100l-165 -144h-75z" />
<glyph unicode="&#xde;" horiz-adv-x="608" d="M71 0v667h117v-113h176q101 0 159.5 -60.5t58.5 -149.5q0 -88 -58.5 -147.5t-159.5 -59.5h-176v-137h-117zM188 240h160q50 0 82 29t32 76t-32 76.5t-82 29.5h-160v-211z" />
<glyph unicode="&#xdf;" horiz-adv-x="623" d="M68 0v485q0 81 58 136.5t155 55.5q78 0 135 -38t57 -99q0 -37 -21.5 -66t-48 -44t-48 -35t-21.5 -43q0 -20 20 -32t50.5 -17.5t65.5 -16.5t65.5 -24.5t50.5 -45t20 -76.5q0 -66 -52.5 -109t-142.5 -43q-67 0 -109.5 20t-82.5 58l47 73q22 -29 61.5 -48t83.5 -19 q45 0 69.5 19t24.5 46q0 22 -20 36t-50.5 20.5t-65.5 17.5t-65.5 24.5t-50.5 42.5t-20 71q0 36 21 65t45.5 44t45.5 33t21 35q0 27 -26.5 42.5t-60.5 15.5q-46 0 -76 -27t-30 -72v-485h-105z" />
<glyph unicode="&#xe0;" horiz-adv-x="536" d="M39 148q0 77 50.5 117t117.5 40q103 0 156 -62v72q0 42 -31 66t-82 24q-81 0 -143 -61l-43 73q82 78 203 78q89 0 145 -42t56 -133v-320h-105v52q-56 -64 -156 -64q-66 0 -117 42.5t-51 117.5zM88 700h100l140 -144h-75zM145 146q0 -39 29 -62.5t74 -23.5q79 0 115 50v73 q-36 50 -115 50q-45 0 -74 -24t-29 -63z" />
<glyph unicode="&#xe1;" horiz-adv-x="536" d="M39 148q0 77 50.5 117t117.5 40q103 0 156 -62v72q0 42 -31 66t-82 24q-81 0 -143 -61l-43 73q82 78 203 78q89 0 145 -42t56 -133v-320h-105v52q-56 -64 -156 -64q-66 0 -117 42.5t-51 117.5zM145 146q0 -39 29 -62.5t74 -23.5q79 0 115 50v73q-36 50 -115 50 q-45 0 -74 -24t-29 -63zM206 556l140 144h100l-165 -144h-75z" />
<glyph unicode="&#xe2;" horiz-adv-x="536" d="M39 148q0 77 50.5 117t117.5 40q103 0 156 -62v72q0 42 -31 66t-82 24q-81 0 -143 -61l-43 73q82 78 203 78q89 0 145 -42t56 -133v-320h-105v52q-56 -64 -156 -64q-66 0 -117 42.5t-51 117.5zM125 556l93 144h96l96 -144h-67l-77 96l-75 -96h-66zM145 146 q0 -39 29 -62.5t74 -23.5q79 0 115 50v73q-36 50 -115 50q-45 0 -74 -24t-29 -63z" />
<glyph unicode="&#xe3;" horiz-adv-x="536" d="M39 148q0 77 50.5 117t117.5 40q103 0 156 -62v72q0 42 -31 66t-82 24q-81 0 -143 -61l-43 73q82 78 203 78q89 0 145 -42t56 -133v-320h-105v52q-56 -64 -156 -64q-66 0 -117 42.5t-51 117.5zM107 560q0 62 26.5 98t76.5 36q30 0 50.5 -19.5t36 -39t32.5 -19.5 q41 0 41 72h58q0 -62 -26.5 -98t-76.5 -36q-19 0 -34.5 8t-25.5 19.5t-18.5 23t-19 19.5t-21.5 8q-18 0 -30 -18t-12 -54h-57zM145 146q0 -39 29 -62.5t74 -23.5q79 0 115 50v73q-36 50 -115 50q-45 0 -74 -24t-29 -63z" />
<glyph unicode="&#xe4;" horiz-adv-x="536" d="M39 148q0 77 50.5 117t117.5 40q103 0 156 -62v72q0 42 -31 66t-82 24q-81 0 -143 -61l-43 73q82 78 203 78q89 0 145 -42t56 -133v-320h-105v52q-56 -64 -156 -64q-66 0 -117 42.5t-51 117.5zM104 608q0 24 17 41t42 17q24 0 41 -17t17 -41q0 -25 -17 -42t-41 -17 q-25 0 -42 17t-17 42zM145 146q0 -39 29 -62.5t74 -23.5q79 0 115 50v73q-36 50 -115 50q-45 0 -74 -24t-29 -63zM313 608q0 24 17.5 41t41.5 17t41.5 -17t17.5 -41q0 -25 -17.5 -42t-41.5 -17t-41.5 17t-17.5 42z" />
<glyph unicode="&#xe5;" horiz-adv-x="536" d="M39 148q0 77 50.5 117t117.5 40q103 0 156 -62v72q0 42 -31 66t-82 24q-81 0 -143 -61l-43 73q82 78 203 78q89 0 145 -42t56 -133v-320h-105v52q-56 -64 -156 -64q-66 0 -117 42.5t-51 117.5zM145 146q0 -39 29 -62.5t74 -23.5q79 0 115 50v73q-36 50 -115 50 q-45 0 -74 -24t-29 -63zM166 638q0 42 30 72.5t72 30.5t71.5 -30.5t29.5 -72.5t-29.5 -72t-71.5 -30t-72 30t-30 72zM216 638q0 -21 15.5 -36.5t36.5 -15.5t36 15.5t15 36.5q0 22 -14.5 37t-36.5 15q-21 0 -36.5 -15t-15.5 -37z" />
<glyph unicode="&#xe6;" horiz-adv-x="878" d="M39 147q0 75 51 116.5t126 41.5q110 0 170 -60v71q0 41 -34 65t-89 24q-89 0 -156 -61l-43 73q84 78 208 78q137 0 174 -93q64 93 177 93q100 0 159.5 -73.5t59.5 -189.5v-25h-351q6 -57 43.5 -94t98.5 -37q34 0 69 14t58 39l48 -71q-35 -33 -84 -51.5t-96 -18.5 q-132 0 -190 98q-29 -44 -83.5 -71t-119.5 -27q-82 0 -139 41.5t-57 117.5zM145 154q0 -38 31 -58t82 -20t89.5 31.5t38.5 67.5v7q-45 51 -128 51q-50 0 -81.5 -20.5t-31.5 -58.5zM490 281h250q-2 50 -33.5 89t-91.5 39q-57 0 -89.5 -39t-35.5 -89z" />
<glyph unicode="&#xe7;" horiz-adv-x="497" d="M38 242q0 110 70 181.5t180 71.5q121 0 185 -86l-69 -64q-40 57 -111 57q-66 0 -106 -44.5t-40 -115.5t40 -116t106 -45q69 0 111 57l69 -64q-57 -77 -162 -85l-16 -40q16 11 36 11q29 0 48 -19.5t19 -49.5q0 -37 -31 -60t-77 -23q-67 0 -106 31l22 46q36 -29 81 -29 q23 0 39.5 9.5t16.5 26.5q0 30 -33 30q-21 0 -34 -15l-41 23l22 60q-98 10 -158.5 79.5t-60.5 172.5z" />
<glyph unicode="&#xe8;" horiz-adv-x="557" d="M38 242q0 106 69.5 179.5t175.5 73.5q107 0 172.5 -74t65.5 -189v-25h-373q6 -57 47 -95t107 -38q37 0 74.5 14t62.5 39l48 -69q-73 -70 -196 -70q-110 0 -181.5 70.5t-71.5 183.5zM105 700h100l140 -144h-75zM147 281h272q-2 50 -36.5 89t-99.5 39q-62 0 -97 -38.5 t-39 -89.5z" />
<glyph unicode="&#xe9;" horiz-adv-x="557" d="M38 242q0 106 69.5 179.5t175.5 73.5q107 0 172.5 -74t65.5 -189v-25h-373q6 -57 47 -95t107 -38q37 0 74.5 14t62.5 39l48 -69q-73 -70 -196 -70q-110 0 -181.5 70.5t-71.5 183.5zM147 281h272q-2 50 -36.5 89t-99.5 39q-62 0 -97 -38.5t-39 -89.5zM223 556l140 144h100 l-165 -144h-75z" />
<glyph unicode="&#xea;" horiz-adv-x="557" d="M38 242q0 106 69.5 179.5t175.5 73.5q107 0 172.5 -74t65.5 -189v-25h-373q6 -57 47 -95t107 -38q37 0 74.5 14t62.5 39l48 -69q-73 -70 -196 -70q-110 0 -181.5 70.5t-71.5 183.5zM142 556l93 144h96l96 -144h-67l-77 96l-75 -96h-66zM147 281h272q-2 50 -36.5 89 t-99.5 39q-62 0 -97 -38.5t-39 -89.5z" />
<glyph unicode="&#xeb;" horiz-adv-x="557" d="M38 242q0 106 69.5 179.5t175.5 73.5q107 0 172.5 -74t65.5 -189v-25h-373q6 -57 47 -95t107 -38q37 0 74.5 14t62.5 39l48 -69q-73 -70 -196 -70q-110 0 -181.5 70.5t-71.5 183.5zM121 608q0 24 17 41t42 17q24 0 41 -17t17 -41q0 -25 -17 -42t-41 -17q-25 0 -42 17 t-17 42zM147 281h272q-2 50 -36.5 89t-99.5 39q-62 0 -97 -38.5t-39 -89.5zM330 608q0 24 17.5 41t41.5 17t41.5 -17t17.5 -41q0 -25 -17.5 -42t-41.5 -17t-41.5 17t-17.5 42z" />
<glyph unicode="&#xec;" horiz-adv-x="241" d="M-59 700h100l140 -144h-75zM68 0v483h105v-483h-105z" />
<glyph unicode="&#xed;" horiz-adv-x="241" d="M60 556l140 144h100l-165 -144h-75zM68 0v483h105v-483h-105z" />
<glyph unicode="&#xee;" horiz-adv-x="241" d="M-22 556l93 144h96l96 -144h-67l-77 96l-75 -96h-66zM68 0v483h105v-483h-105z" />
<glyph unicode="&#xef;" horiz-adv-x="241" d="M-43 608q0 24 17 41t42 17q24 0 41 -17t17 -41q0 -25 -17 -42t-41 -17q-25 0 -42 17t-17 42zM68 0v483h105v-483h-105zM166 608q0 24 17.5 41t41.5 17t41.5 -17t17.5 -41q0 -25 -17.5 -42t-41.5 -17t-41.5 17t-17.5 42z" />
<glyph unicode="&#xf0;" horiz-adv-x="573" d="M38 228q0 104 61.5 172t155.5 68q99 0 159 -91q-40 81 -158 168l-145 -64l-22 52l112 49q-13 9 -37 23.5t-30 18.5l57 85q64 -38 118 -79l105 46l22 -51l-78 -35q177 -155 177 -340q0 -117 -67 -189.5t-182 -72.5q-111 0 -179.5 67.5t-68.5 172.5zM147 228 q0 -62 37.5 -104.5t101.5 -42.5q65 0 102.5 42.5t37.5 104.5t-37.5 104.5t-102.5 42.5q-64 0 -101.5 -42.5t-37.5 -104.5z" />
<glyph unicode="&#xf1;" horiz-adv-x="567" d="M68 0v483h105v-66q27 32 72 55t98 23q77 0 116.5 -40t39.5 -115v-340h-105v302q0 100 -97 100q-38 0 -71 -19t-53 -46v-337h-105zM124 560q0 62 26.5 98t76.5 36q29 0 50 -19.5t36.5 -39t32.5 -19.5q41 0 41 72h58q0 -62 -26.5 -98t-76.5 -36q-19 0 -34.5 8t-25.5 19.5 t-18.5 23t-19 19.5t-21.5 8q-18 0 -30 -18t-12 -54h-57z" />
<glyph unicode="&#xf2;" horiz-adv-x="573" d="M38 242q0 107 68 180t180 73q113 0 181 -73t68 -180q0 -108 -68 -181t-181 -73q-112 0 -180 73.5t-68 180.5zM108 700h100l140 -144h-75zM147 242q0 -68 37.5 -114.5t101.5 -46.5q65 0 102.5 46.5t37.5 114.5q0 67 -37.5 113.5t-102.5 46.5q-64 0 -101.5 -46.5 t-37.5 -113.5z" />
<glyph unicode="&#xf3;" horiz-adv-x="573" d="M38 242q0 107 68 180t180 73q113 0 181 -73t68 -180q0 -108 -68 -181t-181 -73q-112 0 -180 73.5t-68 180.5zM147 242q0 -68 37.5 -114.5t101.5 -46.5q65 0 102.5 46.5t37.5 114.5q0 67 -37.5 113.5t-102.5 46.5q-64 0 -101.5 -46.5t-37.5 -113.5zM226 556l140 144h100 l-165 -144h-75z" />
<glyph unicode="&#xf4;" horiz-adv-x="573" d="M38 242q0 107 68 180t180 73q113 0 181 -73t68 -180q0 -108 -68 -181t-181 -73q-112 0 -180 73.5t-68 180.5zM144 556l93 144h96l96 -144h-67l-77 96l-75 -96h-66zM147 242q0 -68 37.5 -114.5t101.5 -46.5q65 0 102.5 46.5t37.5 114.5q0 67 -37.5 113.5t-102.5 46.5 q-64 0 -101.5 -46.5t-37.5 -113.5z" />
<glyph unicode="&#xf5;" horiz-adv-x="573" d="M38 242q0 107 68 180t180 73q113 0 181 -73t68 -180q0 -108 -68 -181t-181 -73q-112 0 -180 73.5t-68 180.5zM126 560q0 62 26.5 98t76.5 36q30 0 50.5 -19.5t36 -39t32.5 -19.5q41 0 41 72h58q0 -62 -26.5 -98t-76.5 -36q-19 0 -34.5 8t-25.5 19.5t-18.5 23t-19 19.5 t-21.5 8q-18 0 -30 -18t-12 -54h-57zM147 242q0 -68 37.5 -114.5t101.5 -46.5q65 0 102.5 46.5t37.5 114.5q0 67 -37.5 113.5t-102.5 46.5q-64 0 -101.5 -46.5t-37.5 -113.5z" />
<glyph unicode="&#xf6;" horiz-adv-x="573" d="M38 242q0 107 68 180t180 73q113 0 181 -73t68 -180q0 -108 -68 -181t-181 -73q-112 0 -180 73.5t-68 180.5zM123 608q0 24 17 41t42 17q24 0 41 -17t17 -41q0 -25 -17 -42t-41 -17q-25 0 -42 17t-17 42zM147 242q0 -68 37.5 -114.5t101.5 -46.5q65 0 102.5 46.5 t37.5 114.5q0 67 -37.5 113.5t-102.5 46.5q-64 0 -101.5 -46.5t-37.5 -113.5zM332 608q0 24 17.5 41t41.5 17t41.5 -17t17.5 -41q0 -25 -17.5 -42t-41.5 -17t-41.5 17t-17.5 42z" />
<glyph unicode="&#xf7;" horiz-adv-x="511" d="M29 303v68h453v-68h-453zM201 151q0 23 16 39t38 16q23 0 39 -16t16 -39q0 -22 -16 -38t-39 -16t-38.5 15.5t-15.5 38.5zM201 520q0 22 15.5 38t38.5 16t39 -16t16 -38t-16 -38.5t-39 -16.5q-22 0 -38 16t-16 39z" />
<glyph unicode="&#xf8;" horiz-adv-x="573" d="M38 242q0 107 68 180t180 73q78 0 140 -39l22 27h69l-50 -61q68 -71 68 -180q0 -108 -68 -181t-181 -73q-84 0 -143 42l-25 -30h-68l53 64q-65 71 -65 178zM147 242q0 -54 24 -95l191 232q-35 23 -76 23q-64 0 -101.5 -46.5t-37.5 -113.5zM206 107q36 -26 80 -26 q65 0 102.5 46.5t37.5 114.5q0 58 -27 98z" />
<glyph unicode="&#xf9;" horiz-adv-x="567" d="M68 141v342h105v-304q0 -53 25 -75.5t72 -22.5q38 0 71 18t53 45v339h105v-483h-105v64q-68 -76 -171 -76q-155 0 -155 153zM104 700h100l140 -144h-75z" />
<glyph unicode="&#xfa;" horiz-adv-x="567" d="M68 141v342h105v-304q0 -53 25 -75.5t72 -22.5q38 0 71 18t53 45v339h105v-483h-105v64q-68 -76 -171 -76q-155 0 -155 153zM222 556l140 144h100l-165 -144h-75z" />
<glyph unicode="&#xfb;" horiz-adv-x="567" d="M68 141v342h105v-304q0 -53 25 -75.5t72 -22.5q38 0 71 18t53 45v339h105v-483h-105v64q-68 -76 -171 -76q-155 0 -155 153zM141 556l93 144h96l96 -144h-67l-77 96l-75 -96h-66z" />
<glyph unicode="&#xfc;" horiz-adv-x="567" d="M68 141v342h105v-304q0 -53 25 -75.5t72 -22.5q38 0 71 18t53 45v339h105v-483h-105v64q-68 -76 -171 -76q-155 0 -155 153zM119 608q0 24 17 41t42 17q24 0 41 -17t17 -41q0 -25 -17 -42t-41 -17q-25 0 -42 17t-17 42zM328 608q0 24 17.5 41t41.5 17t41.5 -17t17.5 -41 q0 -25 -17.5 -42t-41.5 -17t-41.5 17t-17.5 42z" />
<glyph unicode="&#xfd;" horiz-adv-x="503" d="M-2 483h112l141 -362l141 362h113l-233 -570q-43 -107 -166 -109q-33 0 -59 7l16 94q18 -8 40 -8q51 0 69 42l24 55zM190 556l140 144h100l-165 -144h-75z" />
<glyph unicode="&#xfe;" horiz-adv-x="578" d="M68 -184v851h105v-250q58 78 155 78q95 0 154.5 -68t59.5 -185t-59.5 -185.5t-154.5 -68.5q-96 0 -155 79v-251h-105zM173 146q18 -27 53 -46t71 -19q62 0 99 45t37 116t-37 115.5t-99 44.5q-36 0 -71 -19t-53 -46v-191z" />
<glyph unicode="&#xff;" horiz-adv-x="503" d="M-2 483h112l141 -362l141 362h113l-233 -570q-43 -107 -166 -109q-33 0 -59 7l16 94q18 -8 40 -8q51 0 69 42l24 55zM88 608q0 24 17 41t42 17q24 0 41 -17t17 -41q0 -25 -17 -42t-41 -17q-25 0 -42 17t-17 42zM297 608q0 24 17.5 41t41.5 17t41.5 -17t17.5 -41 q0 -25 -17.5 -42t-41.5 -17t-41.5 17t-17.5 42z" />
<glyph unicode="&#x152;" horiz-adv-x="1093" d="M41 333q0 150 92.5 247t237.5 97q64 0 123.5 -28t93.5 -79v97h457v-103h-340v-173h333v-103h-333v-185h340v-103h-457v96q-34 -52 -93.5 -80t-123.5 -28q-145 0 -237.5 97.5t-92.5 247.5zM161 333q0 -105 61.5 -173t163.5 -68q69 0 122.5 35t79.5 100v212 q-26 65 -79 99.5t-123 34.5q-103 0 -164 -67.5t-61 -172.5z" />
<glyph unicode="&#x153;" horiz-adv-x="944" d="M38 242q0 107 68 180t180 73q123 0 194 -121q67 121 191 121q107 0 172 -73.5t65 -189.5v-25h-372q6 -57 46.5 -95t106.5 -38q83 0 138 53l48 -69q-75 -70 -196 -70q-129 0 -200 120q-69 -120 -193 -120q-112 0 -180 73.5t-68 180.5zM147 242q0 -70 38 -116t101 -46 q64 0 102 46t38 116q0 69 -38 114.5t-102 45.5q-63 0 -101 -45.5t-38 -114.5zM535 281h272q-3 50 -37.5 89t-99.5 39q-62 0 -97 -39t-38 -89z" />
<glyph unicode="&#x178;" horiz-adv-x="637" d="M1 667h134l184 -286l182 286h134l-258 -390v-277h-117v277zM156 775q0 24 17 41t42 17q24 0 41 -17t17 -41q0 -25 -17 -42t-41 -17q-25 0 -42 17t-17 42zM365 775q0 24 17.5 41t41.5 17t41.5 -17t17.5 -41q0 -25 -17.5 -42t-41.5 -17t-41.5 17t-17.5 42z" />
<glyph unicode="&#x2c6;" horiz-adv-x="285" d="M0 556l93 144h96l96 -144h-67l-77 96l-75 -96h-66z" />
<glyph unicode="&#x2dc;" horiz-adv-x="321" d="M0 560q0 62 26.5 98t76.5 36q30 0 50.5 -19.5t36 -39t32.5 -19.5q41 0 41 72h58q0 -62 -26.5 -98t-76.5 -36q-19 0 -34.5 8t-25.5 19.5t-18.5 23t-19 19.5t-21.5 8q-18 0 -30 -18t-12 -54h-57z" />
<glyph unicode="&#x2000;" horiz-adv-x="447" />
<glyph unicode="&#x2001;" horiz-adv-x="894" />
<glyph unicode="&#x2002;" horiz-adv-x="447" />
<glyph unicode="&#x2003;" horiz-adv-x="894" />
<glyph unicode="&#x2004;" horiz-adv-x="298" />
<glyph unicode="&#x2005;" horiz-adv-x="223" />
<glyph unicode="&#x2006;" horiz-adv-x="149" />
<glyph unicode="&#x2007;" horiz-adv-x="149" />
<glyph unicode="&#x2008;" horiz-adv-x="111" />
<glyph unicode="&#x2009;" horiz-adv-x="178" />
<glyph unicode="&#x200a;" horiz-adv-x="49" />
<glyph unicode="&#x2010;" horiz-adv-x="300" d="M30 197v90h240v-90h-240z" />
<glyph unicode="&#x2011;" horiz-adv-x="300" d="M30 197v90h240v-90h-240z" />
<glyph unicode="&#x2012;" horiz-adv-x="300" d="M30 197v90h240v-90h-240z" />
<glyph unicode="&#x2013;" horiz-adv-x="593" d="M30 197v90h533v-90h-533z" />
<glyph unicode="&#x2014;" horiz-adv-x="833" d="M30 197v90h773v-90h-773z" />
<glyph unicode="&#x2018;" horiz-adv-x="244" d="M42 507q0 50 25.5 95t68.5 75l47 -38q-25 -15 -46 -42t-26 -52q6 2 17 2q26 0 43 -17.5t17 -45.5t-20 -48t-48 -20q-32 0 -55 24.5t-23 66.5z" />
<glyph unicode="&#x2019;" horiz-adv-x="244" d="M52 608q0 28 20 48.5t48 20.5q32 0 55 -24.5t23 -66.5q0 -50 -25.5 -95.5t-68.5 -75.5l-47 39q25 15 46 42t26 52q-9 -3 -17 -3q-26 0 -43 17.5t-17 45.5z" />
<glyph unicode="&#x201a;" horiz-adv-x="245" d="M52 60q0 28 20 48.5t48 20.5q32 0 55 -24.5t23 -66.5q0 -50 -25.5 -95.5t-68.5 -75.5l-47 39q25 15 46 42t26 52q-9 -3 -17 -3q-26 0 -43 17.5t-17 45.5z" />
<glyph unicode="&#x201c;" horiz-adv-x="429" d="M46 507q0 50 25.5 95t67.5 75l48 -38q-25 -15 -46.5 -42t-25.5 -52q4 2 17 2q25 0 42 -18t17 -45q0 -28 -20 -48t-48 -20q-32 0 -54.5 24.5t-22.5 66.5zM231 507q0 50 25.5 95t67.5 75l48 -38q-25 -15 -46.5 -42t-25.5 -52q4 2 17 2q25 0 42 -18t17 -45q0 -28 -20 -48 t-48 -20q-32 0 -54.5 24.5t-22.5 66.5z" />
<glyph unicode="&#x201d;" horiz-adv-x="429" d="M52 608q0 28 20 48.5t48 20.5q32 0 55 -24.5t23 -66.5q0 -50 -25.5 -95.5t-68.5 -75.5l-47 39q25 15 46 42t26 52q-9 -3 -17 -3q-26 0 -43 17.5t-17 45.5zM237 608q0 28 20 48.5t48 20.5q32 0 55 -24.5t23 -66.5q0 -50 -25.5 -95.5t-68.5 -75.5l-47 39q25 15 46 42t26 52 q-9 -3 -17 -3q-26 0 -43 17.5t-17 45.5z" />
<glyph unicode="&#x201e;" horiz-adv-x="430" d="M52 60q0 28 20 48.5t48 20.5q32 0 55 -24.5t23 -66.5q0 -50 -25.5 -95.5t-68.5 -75.5l-47 39q25 15 46 42t26 52q-9 -3 -17 -3q-26 0 -43 17.5t-17 45.5zM237 60q0 28 20 48.5t48 20.5q32 0 55 -24.5t23 -66.5q0 -50 -25.5 -95.5t-68.5 -75.5l-47 39q25 15 46 42t26 52 q-9 -3 -17 -3q-26 0 -43 17.5t-17 45.5z" />
<glyph unicode="&#x2022;" horiz-adv-x="358" d="M66 242q0 47 33.5 80.5t80.5 33.5t80.5 -33.5t33.5 -80.5t-33.5 -80t-80.5 -33t-80.5 33t-33.5 80z" />
<glyph unicode="&#x2026;" horiz-adv-x="734" d="M52 59q0 29 20.5 49.5t48.5 20.5q29 0 49.5 -20.5t20.5 -49.5q0 -28 -21 -48.5t-49 -20.5t-48.5 20.5t-20.5 48.5zM297 59q0 29 20.5 49.5t48.5 20.5t49 -20.5t21 -49.5q0 -28 -21 -48.5t-49 -20.5t-48.5 20.5t-20.5 48.5zM542 59q0 29 20.5 49.5t48.5 20.5 q29 0 49.5 -20.5t20.5 -49.5q0 -28 -21 -48.5t-49 -20.5t-48.5 20.5t-20.5 48.5z" />
<glyph unicode="&#x202f;" horiz-adv-x="178" />
<glyph unicode="&#x2039;" horiz-adv-x="319" d="M30 243l160 177h99l-160 -177l160 -180h-99z" />
<glyph unicode="&#x203a;" horiz-adv-x="319" d="M30 63l160 180l-160 177h99l160 -177l-160 -180h-99z" />
<glyph unicode="&#x205f;" horiz-adv-x="223" />
<glyph unicode="&#x20ac;" horiz-adv-x="703" d="M25 230v67h39q-1 11 -1 36q0 12 2 38h-40v67h52q32 109 123.5 174.5t212.5 65.5q174 0 268 -150l-100 -51q-25 43 -70.5 70t-97.5 27q-71 0 -127 -36.5t-82 -99.5h270v-67h-289q-2 -24 -2 -38q0 -25 2 -36h289v-67h-271q27 -64 82.5 -101t127.5 -37q53 0 98 27t70 70 l100 -51q-96 -150 -268 -150q-122 0 -213.5 65.5t-122.5 176.5h-52z" />
<glyph unicode="&#x2122;" horiz-adv-x="454" d="M17 641v26h152v-26h-62v-194h-28v194h-62zM205 447v220h43l64 -160l64 160h43v-220h-28v182l-75 -182h-8l-75 182v-182h-28z" />
<glyph unicode="&#xe000;" horiz-adv-x="485" d="M0 0v485h485v-485h-485z" />
</font>
</defs>
</svg>
